Nodejs视频服务器 切片ffmpeg

逃离Java 2018-05-24 15:22:24 ⋅ 147 阅读

第一部分 音视频相关概念

1.1 视频相关概念

1.1.1 分辨率

分辨率是用于度量图像内数据量多少的一个参数,通常表示成ppi。通常,“分辨率”被表示成每一个方向上的像素数量,比如640x480等。前者为图片长度,后者为图片的宽度,两者相乘得出的是图片的像素,长宽比一般为4:3。分辨率越高,越清晰

1.1.2 比特率[码率]

在电信和电脑运算领域,比特率(英语:Bit rate,变量R[1])是单位时间内传输送或处理的比特的数量。同样分辨率下,视频文件的 码流越大,压缩比就越小,画面 质量就越高

压缩同一个视频,视频编码率越大,文件体积越大。视频编码率越大,画质越好,马赛克越少。

1.1.3 帧数

一帧就是一副静止的画面,连续的帧就形成动画,如电视图象等。每秒钟播放的图片数,单位 fps(英文:Frames Per Second),每秒的帧数或者帧率表示视频文件或者图形处理器场景时每秒钟能够更新的次数。每秒钟帧数 (fps) 愈多,所显示的动作就会愈流畅。

一般情况下,如果能够保证游戏画面的平均FPS能够达到30帧/秒,那么画面已经基本流畅;能够达到50帧/秒,就基本可以体会到行云流水的感觉了。一般人很难分辨出60 帧/秒与100帧/秒有什么不同。

1.1.4 帧率、分辨率、码率的关系

摘录自:帧率分辨率码流的关系以及DVR硬盘容量计算方法

帧率是每秒图像的数量,分辨率表示每幅图像的尺寸即像素数量,码流是经过视频压缩后每秒产生的数据量,而压缩是去掉图像的空间冗余和视频的时间冗余, 所以

  1. 对于静止的场景,可以用很低的码流获得较好的图像质量,

  2. 对于剧烈运动的场景,可能用很高的码流也达不到好的图像质量,所以结论是设置帧率表示您要的实时性设置分辨率是您要看的图像尺寸大小,而码率的设置取决于摄像机及场景的情况,通过现场调试,直到取得一个可以接受的图像质量,就可以确定码流大小。

1.2 ffmpeg

1.2.1 ffmpeg是什么?

FFmpeg是一个自由软件,可以运行音频和视频多种格式的录影、转换、流功能,包含了libavcodec——这是一个用于多个项目中音频和视频的解码器库,以及libavformat——一个音频与视频格式转换库。

“FFmpeg”这个单词中的“FF”指的是“Fast Forward”

此计划由几个组件组成:

 
  1. ffmpeg——一个命令行工具,用来对视频文件转换格式,也支持对电视卡即时编码

  2. ffserver——一个HTTP多媒体即时广播流服务器,支持时光平移

  3. ffplay——一个简单的播放器,基于SDLFFmpeg

  4. libavcodec——包含全部FFmpeg音频/视频编解码库

  5. libavformat——包含demuxersmuxer

  6. libavutil——包含一些工具库

  7. libpostproc——对于视频做前处理的库

  8. libswscale——对于视频作缩放的库

1.2.2 ffmpeg配置

以Mac为例,采用Homebrew下载ffmpeg; 步骤简单,就带过了。

 
  1. brew info ffmpeg

  2. brew install ffmpeg

1.2.3 ffmpeg常用的命令

这个博客写的太详细了ffmpeg命令行参数中文详解,作为入门学习,摘录相较常用的几个试试手。

第一个需求
 
  1. 1. 输出视频、图片详细信息;

  2. 2. 采用【默认格式】导出视频、图片。

ffmpeg -i [视频路径]

没事注意下相片、视频 看下一个原视频包含多少信息!!!!

 
  1. $ ffmpeg -i iphone.MOV

  2. ffmpeg version 3.3.4 Copyright (c) 2000-2017 the FFmpeg developers

  3.  built with Apple LLVM version 8.1.0 (clang-802.0.42)

  4.  configuration: --prefix=/usr/local/Cellar/ffmpeg/3.3.4 --enable-shared --enable-pthreads --enable-gpl --enable-version3 --enable-hardcoded-tables --enable-avresample --cc=clang --host-cflags= --host-ldflags= --enable-libmp3lame --enable-libx264 --enable-libxvid --enable-opencl --enable-videotoolbox --disable-lzma --enable-vda

  5.  libavutil      55. 58.100 / 55. 58.100

  6.  libavcodec     57. 89.100 / 57. 89.100

  7.  libavformat    57. 71.100 / 57. 71.100

  8.  libavdevice    57.  6.100 / 57.  6.100

  9.  libavfilter     6. 82.100 /  6. 82.100

  10.  libavresample   3.  5.  0 /  3.  5.  0

  11.  libswscale      4.  6.100 /  4.  6.100

  12.  libswresample   2.  7.100 /  2.  7.100

  13.  libpostproc    54.  5.100 / 54.  5.100

  14. Input #0, mov,mp4,m4a,3gp,3g2,mj2, from 'iphone.MOV':

  15. -----------手机信息----------------

  16.  Metadata:

  17.    major_brand     : qt

  18.    minor_version   : 0

  19.    compatible_brands: qt

  20.    creation_time   : 2017-10-13T11:05:00.000000Z

  21. -----------地理位置-已暴露位置。。。-------------

  22.    com.apple.quicktime.location.ISO6709: +31.2388+121.4454+014.240/

  23.    com.apple.quicktime.make: Apple

  24.    com.apple.quicktime.model: iPhone 6s Plus

  25.    com.apple.quicktime.software: 11.0.3

  26.    com.apple.quicktime.creationdate: 2017-10-13T19:04:59+0800

  27. ---------------------------

  28. #-----时长03.10----6.1 MB

  29. #-----bitrate:15642 kb/s

  30. #-----分辨率: 1920x1080

  31. #-----29.98 fps

  32. #-----H.264

  33.  Duration: 00:00:03.10, start: 0.000000, bitrate: 15642 kb/s

  34.    Stream #0:0(und): Video: h264 (High) (avc1 / 0x31637661), yuv420p(tv, bt709), 1920x1080, 15528 kb/s, 29.98 fps, 29.97 tbr, 600 tbn, 1200 tbc (default)

  35.    Metadata:

  36.      rotate          : 90

  37.      creation_time   : 2017-10-13T11:05:00.000000Z

  38.      handler_name    : Core Media Data Handler

  39.      encoder         : H.264

  40.    Side data:

  41.      displaymatrix: rotation of -90.00 degrees

  42. #----- 音频编码:Audio: aac    

  43.    Stream #0:1(und): Audio: aac (LC) (mp4a / 0x6134706D), 44100 Hz, mono, fltp, 93 kb/s (default)

  44.    Metadata:

  45.      creation_time   : 2017-10-13T11:05:00.000000Z

  46.      handler_name    : Core Media Data Handler

  47.    Stream #0:2(und): Data: none (mebx / 0x7862656D), 0 kb/s (default)

  48.    Metadata:

  49.      creation_time   : 2017-10-13T11:05:00.000000Z

  50.      handler_name    : Core Media Data Handler

  51.    Stream #0:3(und): Data: none (mebx / 0x7862656D), 0 kb/s (default)

  52.    Metadata:

  53.      creation_time   : 2017-10-13T11:05:00.000000Z

  54.      handler_name    : Core Media Data Handler

  55. At least one output file must be specified

采用【默认格式】导出视频、图片。

 
  1. 默认将视频导出out.mp4

  2. $ ffmpeg -i iphone.mp4 out.mp4

  3. .....

  4. $ ffmpeg -i iphone.MOV

  5. 。。。。

  6. Input #0, mov,mp4,m4a,3gp,3g2,mj2, from 'out.mp4':

  7.  Metadata:

  8.    major_brand     : isom

  9.    minor_version   : 512

  10.    compatible_brands: isomiso2avc1mp41

  11.    encoder         : Lavf57.71.100

  12. ---------------------------

  13. #-----时长03.10----6.1 MB ---> 003.14----2 MB

  14. #-----bitrate:15642 kb/s --> 5228 kb/s

  15. #-----分辨率: 1920x1080 ->1920x1080

  16. #-----29.98 fps -> 29.97 fps

  17. #-----H.264  

  18.  Duration: 00:00:03.14, start: 0.000000, bitrate: 5228 kb/s

  19.    Stream #0:0(und): Video: h264 (High) (avc1 / 0x31637661), yuv420p, 1080x1920, 5198 kb/s, 29.97 fps, 29.97 tbr, 30k tbn, 59.94 tbc (default)

  20.    Metadata:

  21.      handler_name    : VideoHandler

  22.    Stream #0:1(und): Audio: aac (LC) (mp4a / 0x6134706D), 44100 Hz, mono, fltp, 71 kb/s (default)

  23.    Metadata:

  24.      handler_name    : SoundHandler

  25. At least one output file must be specified

第二个需求
 
  1. ----------视频基本参数

  2. -b:v bitrate 设置比特率, 缺省200kb/s(该数值依据转发的文章, 本人未验证).

  3. -r fps 设置帧率. 缺省25(该数值依据转发的文章, 本人未验证)

  4. -s size 设置帧大小 格式为WXH 缺省160X128. 默认为与源相同大小. 下面的简写也可以直接使用: Sqcif 128X96 qcif 176X144 cif 252X288 4cif 704X576

  5. -aspect aspect 设置横纵比 4:3 16:9 1.3333 1.7777

  6. ----------音频基本参数

  7. -ab bitrate 设置音频码率. 有些版本是(-b:a bitrate)

  8. -ar freq 设置音频采样率

  9. -ac channels 设置通道 缺省为与输入相同.

  10. -an 不使能音频纪录

  11. -acodec codec 使用codec编解码

设置帧率

 
 
  1. ffmpeg -i test2.mp4  -codec:v libx264 -codec:a mp3 -map 0 -f ssegment -segment_format mpegts -segment_list playlist.m3u8 -segment_time 5 out%03d.ts

  2. ffmpeg -i input.mp4 -c:v libx264 -c:a aac -strict -2 -f hls output.m3u8

  3. time ffmpeg -i test2.mp4 -c:v libx264 -c:a aac -strict -2 -f hls -hls_list_size 0 -hls_time 5 output.m3u8

  4. #时间

  5. time ffmpeg -i test2.mp4 -strict -2 -f hls -hls_list_size 0 -hls_time 5 output.m3u8

欢迎关注IT实战联盟


全部评论: 0

    我有话说:

    Nodejs 搭建https服务器

    第一部分 搭建https服务器 前奏首先需要理解几个概念 HTTPS HTTP是一个网络协议,是专门用来传输 Web 内容; SSL(Secure Sockets Layer)的缩写

    自学视频剪辑要多长时间才能学会?

      <p><strong>雾隐门视频剪辑软件</strong><br /> 雾隐门快剪辑是款非常适合自媒体人士使用的视频剪辑软件,快速上手是

    Node模块之Events模块(五)

    Node模块之Events模块(五)

    Nodejs 搭建https服务器

    HTTP是一个网络协议,是专门用来传输 Web 内容

    Node实战篇:Express--jade模板引擎(七)

    Jade(Pug) — Node Template Engine,一个高性能的模板引擎,专为 Node 而做......

    Nodejs 搭建https服务器(十)

    老司机,坐稳了。

    Node模块之fs模块(六)

    屏幕快照 2017-08-08 上午10.53.21.png 第一部分 概述 Node.js 提供一组类似UNIX(POSIX)标准的文件操作API,Node.js中操作文件的模块是fs(File

    Node实战篇:Express路由(三)

    Express 是一个基于 Node.js 平台的极简、灵活的 web 应用开发框架,它提供一系列强大的特性,帮助你创建各种 Web 和移动设备应用。

    2018年8个技巧来构建更好的Node.js应用程序

    2018年8个技巧来构建更好的Node.js应用程序

    Nodejs 接入 公众号【逗比版】

    Nodejs 接入 公众号 需求:Boss: 我们要接入公众号,你看下文档对接下。Me: 🆗 然后,可能因为对腾讯的反感,加之网上对腾讯的吐槽,怀着愤世嫉俗的态度胡乱的找资源,看方案

    Node 模块之 util URL queryString path(八)

    第一部分 util util是一个Node.js核心模块,util模块设计的主要目的是为了满足Node内部API的需求。其中包括:格式化字符串、对象的序列化、实现对象继承等常用方法。要使用util

    NodeJS 10.5.0 中的线程:实用介绍

    几天前,Node.js版本10.5.0发布,其中包含的主要功能之一是添加了线程支持。

    Node异步式I/O和异步式编程(三)

     Node.js 最大的特点就是异步式 I/O(或者非阻塞I/O)与事件紧密结合的编程模式。 第一部分: I/O 1.阻塞I/O与非阻塞I/O概念 1.1阻塞I/O(同步I/O) 线程在

    「轻阅读」基于 Flink SQL CDC的实时数据同步方案,附视频

    整理:陈政羽(Flink 社区志愿者)原文:https://mp.weixin.qq.com/s/QNJlacBUlkMT7ksKKSNa5Q Flink 1.11 引入了 Flink SQL CDC,CDC 能给我们数据和业务间能带来什么变化?...

    Node实战篇:Nodejs 链接 Mariadb 实例

    MariaDB数据库管理系统是MySQL的一个分支,主要由开源社区在维护,采用GPL授权许可 MariaDB的目的是完全兼容MySQL

    TypeScript Nodejs 项目结构

    新旧交替新事物代替旧事物无外乎旧事物太陈旧。JS动态软类型语言,便利的同时也带来了很多弊端,随着...

    TypeScript Nodejs 项目结构

    1. 新旧交替 新事物代替旧事物无外乎旧事物太陈旧。 JS动态软类型语言,便利的同时也带来了很多弊端,随着项目的增大,加上没有注释,你完全会懵逼。 可以看下网上汇总的错误信息,有多少个是类型错误引起的 图为rollbar统计的数千个项目中数...

    Node模块(四)

    模块化分工、各司其职

    Node包管理NPM(二)

    NPM是什么? [NPM官网](https://docs.npmjs.com/)给出解释如下: ``` Use npm to install, share, and distribute code; manage dependencies i...